<?xml version="1.0" standalone="no"?>
<!DOCTYPE svg PUBLIC "-//W3C//DTD SVG 1.1//EN" "http://www.w3.org/Graphics/SVG/1.1/DTD/svg11.dtd">
<svg xmlns="http://www.w3.org/2000/svg">
<metadata>Copyright (C) 2022 by original authors @ fontello.com</metadata>
<defs>
<font id="fontello" horiz-adv-x="1000" >
<font-face font-family="fontello" font-weight="400" font-stretch="normal" units-per-em="1000" ascent="850" descent="-150" />
<missing-glyph horiz-adv-x="1000" />
<glyph glyph-name="open-in-new" unicode="&#xe800;" d="M583 725v-83h150l-410-410 59-59 410 410v-150h83v292h-292z m209-667h-584v584h292v83h-292c-46 0-83-37-83-83v-584c0-22 9-43 24-59 16-15 37-24 59-24h584c22 0 43 9 59 24 15 16 24 37 24 59v292h-83v-292z" horiz-adv-x="1000" />

<glyph glyph-name="payment" unicode="&#xe801;" d="M833 683h-666c-47 0-83-37-83-83l-1-500c0-46 37-83 84-83h666c47 0 84 37 84 83v500c0 46-37 83-84 83z m0-583h-666v250h666v-250z m0 417h-666v83h666v-83z" horiz-adv-x="1000" />

<glyph glyph-name="phone" unicode="&#xe802;" d="M276 400c60-117 157-214 274-274l92 92c11 11 28 15 43 10 46-16 97-24 148-24 23 0 42-19 42-42v-145c0-23-19-42-42-42-391 0-708 317-708 708 0 23 19 42 42 42h146c22 0 41-19 41-42 0-52 9-102 24-148 5-15 1-31-10-43l-92-92z" horiz-adv-x="1000" />

<glyph glyph-name="radio-checked" unicode="&#xe803;" d="M500 558c-115 0-208-93-208-208 0-115 93-208 208-208 115 0 208 93 208 208 0 115-93 208-208 208z m0 209c-230 0-417-187-417-417 0-230 187-417 417-417 230 0 417 187 417 417 0 230-187 417-417 417z m0-750c-184 0-333 149-333 333 0 184 149 333 333 333 184 0 333-149 333-333 0-184-149-333-333-333z" horiz-adv-x="1000" />

<glyph glyph-name="radio-unchecked" unicode="&#xe804;" d="M500 767c-230 0-417-187-417-417 0-230 187-417 417-417 230 0 417 187 417 417 0 230-187 417-417 417z m0-750c-184 0-333 149-333 333 0 184 149 333 333 333 184 0 333-149 333-333 0-184-149-333-333-333z" horiz-adv-x="1000" />

<glyph glyph-name="shopping-cart-active" unicode="&#xe805;" d="M542 683h-325l-39 84h-136v-84h83l150-316-56-102c-7-12-11-25-11-40 0-46 38-83 84-83h500v83h-483c-6 0-10 5-10 10l1 5 38 68h310c31 0 59 17 73 43l46 84c-127 12-225 119-225 248z m-333-666c0 46 37 83 83 83 46 0 83-37 83-83 0-46-37-84-83-84-46 0-83 38-83 84z m416 0c0 46 38 83 83 83 46 0 84-37 84-83 0-46-38-84-84-84-45 0-83 38-83 84z" horiz-adv-x="1000" />

<glyph glyph-name="shopping-cart" unicode="&#xe806;" d="M292 100c-46 0-83-37-83-83 0-46 37-84 83-84 46 0 83 38 83 84 0 46-37 83-83 83z m-250 667v-84h83l150-316-56-102c-7-12-11-25-11-40 0-46 38-83 84-83h500v83h-483c-6 0-10 5-10 10l1 5 38 68h310c31 0 59 17 73 43l149 271c3 6 5 13 5 20 0 23-19 41-42 41h-616l-39 84h-136z m666-667c-45 0-83-37-83-83 0-46 38-84 83-84 46 0 84 38 84 84 0 46-38 83-84 83z" horiz-adv-x="1000" />

<glyph glyph-name="star-border" unicode="&#xe807;" d="M917 465l-300 26-117 276-117-277-300-25 228-197-68-293 257 155 258-155-68 293 227 197z m-417-257l-157-94 42 178-138 120 182 16 71 168 71-168 183-16-139-120 42-179-157 95z" horiz-adv-x="1000" />

<glyph glyph-name="star-half" unicode="&#xe808;" d="M917 465l-300 26-117 276-117-277-300-25 228-197-68-293 257 155 258-155-68 293 227 197z m-417-257v388l71-168 183-16-139-120 42-179-157 95z" horiz-adv-x="1000" />

<glyph glyph-name="star" unicode="&#xe809;" d="M500 130l258-155-69 293 228 197-300 25-117 277-117-277-300-25 228-197-68-293 257 155z" horiz-adv-x="1000" />

<glyph glyph-name="time" unicode="&#xe80a;" d="M500 767c-230 0-417-187-417-417 0-230 187-417 417-417 230 0 417 187 417 417 0 230-187 417-417 417z m0-750c-184 0-333 149-333 333 0 184 149 333 333 333 184 0 333-149 333-333 0-184-149-333-333-333z m21 541h-63v-250l219-131 31 51-187 112v218z" horiz-adv-x="1000" />

<glyph glyph-name="timer" unicode="&#xe80b;" d="M625 773h-250v-84h250v84z m-167-542h84v250h-84v-250z m335 275l59 60c-18 21-37 41-59 58l-59-59c-64 52-146 83-234 83-207 0-375-168-375-375 0-207 168-375 375-375 208 0 375 168 375 375 0 88-31 169-82 233z m-293-525c-161 0-292 130-292 292 0 161 131 291 292 291 161 0 292-130 292-291 0-162-131-292-292-292z" horiz-adv-x="1000" />

<glyph glyph-name="tulip" unicode="&#xe80c;" d="M125 308c0-99 40-194 110-265 70-70 166-110 265-110 0 100-39 195-110 266-70 70-165 109-265 109z m375-375c100 0 195 40 265 110 71 71 110 166 110 265-99 0-195-39-265-109-70-71-110-166-110-266z m250 792v-208c0-67-26-130-73-177-47-47-111-73-177-73-66 0-130 26-177 73-47 47-73 110-73 177v208c31 0 61-5 90-16 23-10 43-24 60-42l100 100 100-100c17 18 37 32 60 42 29 11 59 16 90 16z" horiz-adv-x="1000" />

<glyph glyph-name="add" unicode="&#xe80d;" d="M792 308h-250v-250h-84v250h-250v84h250v250h84v-250h250v-84z" horiz-adv-x="1000" />

<glyph glyph-name="arrow-down" unicode="&#xe80e;" d="M309 493l191-192 191 192 59-60-250-250-250 250 59 60z" horiz-adv-x="1000" />

<glyph glyph-name="arrow-left" unicode="&#xe80f;" d="M642 159l-191 191 191 191-59 59-250-250 250-250 59 59z" horiz-adv-x="1000" />

<glyph glyph-name="arrow-right" unicode="&#xe810;" d="M358 159l191 191-191 191 59 59 250-250-250-250-59 59z" horiz-adv-x="1000" />

<glyph glyph-name="arrow-top-right" unicode="&#xe811;" d="M208 117l442 441h-275v84h417v-417h-84v275l-441-442-59 59z" horiz-adv-x="1000" />

<glyph glyph-name="arrow-up" unicode="&#xe812;" d="M309 208l191 191 191-191 59 59-250 250-250-250 59-59z" horiz-adv-x="1000" />

<glyph glyph-name="bell" unicode="&#xe813;" d="M875 58v-41h-750v41l83 84v250c0 129 85 243 209 279 0 4 0 8 0 12 0 22 8 44 24 59 16 16 37 25 59 25 22 0 43-9 59-25 16-15 24-37 24-59 0-4 0-8 0-12 124-36 209-150 209-279v-250l83-84z m-292-83c0-22-8-43-24-59-16-16-37-24-59-24-22 0-43 8-59 24-16 16-24 37-24 59h166z m240 742l-59-59c71-70 111-166 111-266h83c0 122-48 239-135 325z m-781-325h83c0 100 40 196 111 266l-59 59c-87-86-135-203-135-325z" horiz-adv-x="1000" />

<glyph glyph-name="calendar" unicode="&#xe814;" d="M792 58h-584v459h584v-459z m-125 750v-83h-334v83h-83v-83h-42c-46 0-83-37-83-83v-584c0-22 9-43 24-59 16-15 37-24 59-24h584c22 0 43 9 59 24 15 16 24 37 24 59v584c0 46-37 83-83 83h-42v83h-83z m41-458h-208v-208h208v208z" horiz-adv-x="1000" />

<glyph glyph-name="check-box-checked" unicode="&#xe815;" d="M792 725h-584c-46 0-83-37-83-83v-584c0-45 37-83 83-83h584c46 0 83 38 83 83v584c0 46-37 83-83 83z m-375-583l-209 208 59 59 150-149 316 316 59-59-375-375z" horiz-adv-x="1000" />

<glyph glyph-name="check-box-unchecked" unicode="&#xe816;" d="M792 642v-584h-584v584h584z m0 83h-584c-45 0-83-37-83-83v-584c0-45 38-83 83-83h584c46 0 83 38 83 83v584c0 46-37 83-83 83z" horiz-adv-x="1000" />

<glyph glyph-name="check" unicode="&#xe817;" d="M500 767c-230 0-417-187-417-417 0-230 187-417 417-417 230 0 417 187 417 417 0 230-187 417-417 417z m-83-625l-209 208 59 59 150-149 316 316 59-59-375-375z" horiz-adv-x="1000" />

<glyph glyph-name="close" unicode="&#xe818;" d="M792 583l-59 59-233-233-233 233-59-59 233-233-233-233 59-59 233 233 233-233 59 59-233 233 233 233z" horiz-adv-x="1000" />

<glyph glyph-name="dollar" unicode="&#xe819;" d="M500 767c-82 0-163-25-231-71-69-45-122-110-154-186-31-77-40-160-24-241 16-81 56-155 114-214 59-58 133-98 214-114 81-16 164-8 240 24 77 32 142 85 187 154 46 68 71 149 71 231 0 55-11 109-32 160-21 50-52 96-90 135-39 38-85 69-136 90-50 21-104 32-159 32z m125-334h-167v-41h125c11 0 22-5 30-12 8-8 12-19 12-30v-125c0-11-4-22-12-29-8-8-19-13-30-13h-41v-41h-84v41h-83v84h167v41h-125c-11 0-22 5-30 13-8 7-12 18-12 29v125c0 11 4 22 12 30 8 7 19 12 30 12h41v41h84v-41h83v-84z" horiz-adv-x="1000" />

<glyph glyph-name="drop-down" unicode="&#xe81a;" d="M292 433l208-208 208 208h-416z" horiz-adv-x="1000" />

<glyph glyph-name="email" unicode="&#xe81b;" d="M833 683h-666c-46 0-83-37-83-83l-1-500c0-46 38-83 84-83h666c46 0 84 37 84 83v500c0 46-38 83-84 83z m0-166l-333-209-333 209v83l333-208 333 208v-83z" horiz-adv-x="1000" />

<glyph glyph-name="error" unicode="&#xe81c;" d="M500 767c-230 0-417-187-417-417 0-230 187-417 417-417 230 0 417 187 417 417 0 230-187 417-417 417z m42-625h-84v83h84v-83z m0 166h-84v250h84v-250z" horiz-adv-x="1000" />

<glyph glyph-name="excited" unicode="&#xe81d;" d="M500 767c-230 0-417-187-417-417 0-230 187-417 417-417 111 0 217 44 295 122 78 79 122 185 122 295 0 230-188 417-417 417z m-130-243l88-88-44-44-44 44-44-44-44 44 88 88z m130-403c-97 0-180 61-213 146h426c-33-85-116-146-213-146z m174 271l-44 44-44-44-44 44 88 88 88-88-44-44z" horiz-adv-x="1000" />

<glyph glyph-name="info" unicode="&#xe81e;" d="M500 767c-230 0-417-187-417-417 0-230 187-417 417-417 230 0 417 187 417 417 0 230-187 417-417 417z m42-625h-84v250h84v-250z m0 333h-84v83h84v-83z" horiz-adv-x="1000" />

<glyph glyph-name="lock" unicode="&#xe81f;" d="M750 517h-42v83c0 115-93 208-208 208-115 0-208-93-208-208v-83h-42c-46 0-83-38-83-84v-416c0-46 37-84 83-84h500c46 0 83 38 83 84v416c0 46-37 84-83 84z m-250-375c-46 0-83 37-83 83 0 46 37 83 83 83 46 0 83-37 83-83 0-46-37-83-83-83z m129 375h-258v83c0 71 58 129 129 129 71 0 129-58 129-129v-83z" horiz-adv-x="1000" />

<glyph glyph-name="menu" unicode="&#xe820;" d="M125 100h750v83h-750v-83z m0 208h750v84h-750v-84z m0 292v-83h750v83h-750z" horiz-adv-x="1000" />
</font>
</defs>
</svg>
